#TITLE:Brilliant 2 U;
#SUBTITLE:(KOG G3);
#ARTIST:Naoki;
#TITLETRANSLIT:;
#SUBTITLETRANSLIT:;
#ARTISTTRANSLIT:;
#CREDIT:;
#BANNER:b2u-banner.png;
#BACKGROUND:b2u-bg.png;
#LYRICSPATH:;
#CDTITLE:;
#MUSIC:b2u.mp3;
#MUSICLENGTH:87.092;
#OFFSET:-0.080;
#SAMPLESTART:58.485;
#SAMPLELENGTH:12.000;
#SELECTABLE:YES;
#BPMS:0.000=160.000;
#STOPS:;
#BGCHANGES:;
#FIRSTBEAT:15.500;

#LASTBEAT:227.000;

#SONGFILENAME:Songs/ERICth MIX 2nd Style/b2u mix/b2u.sm;

#HASMUSIC:1;

#HASBANNER:1;


//---------------dance-single - MANIAC----------------
#NOTES:
     dance-single:
     MANIAC:
     hard:
     7:
     0.556,0.619,0.356,0.184,0.184,292.000,31.000,16.000,0.000,0.000:

0000
0000
0000
0000
,
0000
0000
0000
0000
,
0000
0000
0000
0000
,
0000
0000
0000
0000
0000
0000
0000
1000
,
0001
1000
0000
0001
0000
0100
0000
1001
,
0000
0100
0000
0010
0000
0001
0010
0001
,
0000
1000
0000
0010
0000
0100
0000
0011
,
0000
0110
0000
1100
0000
1000
0001
1000
,
0100
0000
0101
0000
1000
0100
0001
0000
,
0110
0000
0000
0000
0100
0010
0000
0000
0100
0000
0001
0000
0100
0001
0100
0000
,
0001
0000
0010
0100
1000
0100
0001
0000
,
0001
0010
2000
0000
0000
3000
0000
0000
,
0110
0000
1001
0000
0110
1001
0110
0000
,
0010
0000
0001
0000
1000
0000
0000
0000
1000
0001
0000
0001
1000
0000
0000
0000
,
1100
1100
0101
0101
,
0010
1000
0001
0100
0001
1000
0010
0000
,
0010
1000
0001
0000
0001
1000
0001
0000
,
0001
0100
0010
0000
0010
0100
0010
0000
,
0010
1000
0100
0000
0100
1000
0001
0000
,
0001
1000
0010
0000
0010
1000
0010
1000
,
0010
0000
1000
0000
0001
0000
0001
1000
,
0100
0001
0010
0001
0100
0001
1000
0100
,
1000
0100
0010
0000
1010
0000
0101
0000
,
1001
0011
0101
0011
,
2000
0000
3010
0001
0000
0001
0100
0002
,
1000
0000
1000
1003
0000
0100
0000
0100
,
0002
0000
1003
0010
0000
1000
0100
0010
,
0200
0000
0310
0100
0000
1000
0000
0001
,
2000
0000
3100
0020
0000
0031
0100
0001
,
2000
0000
3010
0100
0000
0100
0000
0100
,
0002
0000
1003
0100
0000
0100
0001
0100
,
0020
0000
0130
0001
0000
0000
0000
0000
,
1000
0000
0010
0000
1000
0010
0000
1000
0000
0010
0000
1000
0010
0000
0100
0000
,
0001
0000
0100
0000
0001
0100
0000
0001
0000
0100
0000
0001
0100
0000
0010
0000
,
1000
0000
0010
0000
1000
0010
0000
1000
0000
0010
0000
1000
0010
0000
0100
0000
,
0001
0000
0100
0000
0001
0100
0000
0001
0000
0100
0000
0001
0100
0000
0010
0000
,
1000
0000
0010
0000
1000
0010
0000
1000
0000
0010
0000
1000
0010
0000
0100
0000
,
0001
0000
0100
0000
0001
0100
0000
0001
0000
0100
0000
0001
0100
0000
0010
0000
,
1000
0000
0010
0000
1000
0010
0000
1000
0000
0010
0000
1000
0010
0000
0100
0000
,
0001
0100
0001
1000
0001
0100
0100
0000
,
0000
1000
0000
0100
0000
0010
0000
0001
,
0000
0010
0000
0100
0000
1000
0000
0100
,
0000
0001
0000
0100
0000
1000
0000
0010
,
0000
0001
0000
0010
0000
0110
0000
1001
,
0000
1100
0000
0011
0000
0100
0000
0001
,
0000
1000
0000
0001
0000
0100
0000
0010
,
0000
0001
0000
0110
0000
0101
0000
1010
,
0000
1001
0000
1001
0000
0100
0000
0010
,
2000
0000
0000
0000
,
3200
0000
0000
0000
,
0302
0000
0000
0000
,
0023
0000
0000
0000
,
1030
0100
0001
0100
1000
0010
0001
0010
,
1000
0100
0001
0100
1000
0010
0001
0010
,
1000
0100
0001
0100
1000
0010
0001
0010
,
1000
0100
0001
0100
1000
0010
0001
0000
,
0202
0000
0000
0303;

//---------------dance-single - ANOTHER----------------
#NOTES:
     dance-single:
     ANOTHER:
     medium:
     6:
     0.405,0.514,0.092,0.034,0.000,236.000,8.000,3.000,0.000,0.000:

0000
0000
0000
0000
,
0000
0000
0000
0000
,
0000
0000
0000
0000
,
0000
0000
0000
0000
,
0010
1000
0001
0010
,
0001
0000
1000
0000
0100
0000
0010
0001
,
0010
0001
1000
0010
,
1000
0001
0100
0010
,
0110
0000
0001
0000
1000
0100
1000
0000
,
0001
1000
0010
0100
,
0001
0000
1000
0000
0010
0001
0010
0000
,
0001
1000
1100
0011
,
0100
0000
1000
0000
0001
1000
0010
0000
,
1000
0100
1000
0001
,
0010
0000
0100
0000
0010
0100
0010
0000
,
0001
0000
1000
0000
0010
1000
0001
0000
,
0010
0000
0001
0000
0010
0100
0010
0000
,
0001
1000
0100
0010
,
0001
0000
1000
0000
0001
2000
0000
3001
,
0002
0003
1000
0000
0010
0000
0100
0000
,
0010
1000
0001
0100
,
0010
0002
1000
1000
,
1000
0003
0010
0000
1000
0000
0100
0000
,
0010
0001
0100
0100
,
0010
0000
0001
0000
,
1000
0000
0000
0000
0010
0000
1000
0001
,
1000
0000
0100
0000
,
0010
0000
0000
0000
0001
0000
0010
0001
,
0100
0000
1000
0000
,
0001
0000
0000
0000
0100
0000
0010
0100
,
1000
0000
0001
0000
,
1000
0000
0100
0000
,
1000
0100
1000
0100
1000
0100
1000
0100
,
1000
0100
1000
0100
1000
0100
1000
0000
,
0001
0010
0001
0010
0001
0010
0001
0010
,
0001
0010
0001
0010
0001
0010
0001
0000
,
1000
0010
1000
0001
0100
0010
1000
0001
,
1000
0010
0100
0001
1000
0010
1000
0000
,
0001
1000
0100
0010
,
0001
1000
0100
0010
,
0000
0010
0000
0001
0000
1000
0000
0100
,
0000
0010
0000
0001
0000
1000
0000
0010
,
0000
0100
0000
0001
0000
1000
0000
0001
,
0000
0011
0000
1100
0000
0010
0000
0100
,
0000
0001
0000
1000
0000
0010
0000
0100
,
0000
0010
0000
1000
0000
1010
0000
0101
,
0000
0010
0000
1000
0000
0001
0000
0100
,
0000
0010
0000
1000
0000
0001
0000
1000
,
0100
0010
0001
0010
,
0100
0010
0001
0010
,
0001
0010
0001
1000
,
0001
0010
0100
1000
,
0001
1000
0010
0000
0001
1000
0010
0000
,
0010
1000
0001
0000
0010
1000
0001
0000
,
0100
0010
0100
0000
0001
1000
0100
0000
,
0001
0100
1000
0000
0010
1000
0001
0000
,
1001
0000
0000
0000;

//---------------dance-single - BASIC----------------
#NOTES:
     dance-single:
     BASIC:
     easy:
     4:
     0.277,0.450,0.069,0.115,0.000,153.000,6.000,10.000,0.000,0.000:

0000
0000
0000
0000
,
0000
0000
0000
0000
,
0000
0000
0000
0000
,
0000
0000
0000
0000
,
0001
1000
0100
1000
,
0000
0001
1000
0100
,
0000
0010
1000
0001
,
0000
0100
0001
1000
,
0011
0000
0100
0000
,
0001
0000
1000
0000
,
0010
0000
0100
0000
,
1000
0000
0001
0000
,
0100
0000
0010
0000
,
0100
0000
1000
0000
,
0001
0000
0100
0000
,
0010
0000
1000
0000
,
0001
0000
1000
0000
,
0100
0000
0010
0000
,
0001
0000
1000
0000
,
0020
1000
0100
1000
,
0130
0000
1000
0000
,
0001
0010
0001
0010
,
0002
0003
1000
0000
,
0100
0000
0010
0001
,
1000
0100
0010
0001
,
1000
0010
0100
0001
,
1000
0100
0010
0000
,
0100
1000
0010
1000
,
0001
0001
0001
1000
,
0100
0010
0001
1000
,
0010
0100
0001
1000
,
0011
1100
0010
1010
,
0101
0010
1000
0001
,
0100
0000
0100
0000
,
0010
0001
2000
3000
,
0100
1000
0010
0000
,
0001
1000
0100
0010
,
0000
0100
1000
0000
,
0100
1000
0002
2003
,
3002
2003
3002
1003
,
0001
0000
0001
0000
,
0100
0000
0100
0000
,
1000
0000
1000
0000
,
0010
0000
0010
0000
,
0001
0000
0001
0000
,
0100
0000
0100
0000
,
1000
0000
1000
0000
,
0010
0000
0010
0000
,
0001
0001
1000
0100
,
0010
0010
1000
0100
,
0100
0100
0010
0100
,
1000
0001
0010
0100
,
2000
3000
0001
0000
,
0020
0030
0100
0100
,
1000
0001
0100
0001
,
1000
0100
0010
0100
,
0110
0000
0000
0000;
